MKV video codecs

10-01-2011 08:35 AM
Stardust

Hi.

I have a 3D bluray phillips player HTS3560X/78 that support those codecs and containers:
- Audio - MP3, WAV, WMA;
- Static Image - GIF, JPEG, JPEG HD, JPEG Progressivo, PNG;
- Video - DivX Ultra, MPEG1, MPEG2, MPEG4, WMV SD, XviD;
- File - mp3, wma, GIF, JPEG, JPG, asf, avi, divx, mkv, mpeg, mpg, wmv

This file plays audio and video:
General
Count : 278
Count of stream of this kind : 1
Kind of stream : General
Kind of stream : General
Stream identifier : 0
Unique ID : 225825752535010669636427206776701318756
Unique ID : 225825752535010669636427206776701318756 (0xA9E47539125E9167971ED3AE917BF664)
Count of video streams : 1
Count of audio streams : 1
Count of menu streams : 1
Video_Format_List : AVC
Video_Format_WithHint_List : AVC
Codecs Video : AVC
Video_Language_List : English
Audio_Format_List : AAC
Audio_Format_WithHint_List : AAC
Audio codecs : AAC LC-SBR
Audio_Language_List : English
Complete name :
Folder name :
File name :
File extension : mkv
Format : Matroska
Format : Matroska
Format/Url : http://packs.matroska.org/
Format/Extensions usually used : mkv mk3d mka mks
Commercial name : Matroska
Format version : Version 2
Codec : Matroska
Codec : Matroska
Codec/Url : http://packs.matroska.org/
Codec/Extensions usually used : mkv mk3d mka mks
File size : 185870500
File size : 177 MiB
File size : 177 MiB
File size : 177 MiB
File size : 177 MiB
File size : 177.3 MiB
Duration : 3728470
Duration : 1h 2mn
Duration : 1h 2mn 8s 470ms
Duration : 1h 2mn
Duration : 01:02:08.470
Overall bit rate : 398813
Overall bit rate : 399 Kbps
Encoded date : UTC 2009-07-30 16:45:37
File creation date : UTC 2011-09-21 01:19:52.134
File creation date (local) : 2011-09-20 22:19:52.134
File last modification date : UTC 2011-09-21 01:31:20.839
File last modification date (loc : 2011-09-20 22:31:20.839
Writing application : mkvmerge v2.9.7 ('Tenderness') built on Jul 1 2009 18:43:35
Writing library : libebml v0.7.7 + libmatroska v0.8.1
Writing library : libebml v0.7.7 + libmatroska v0.8.1

Video
Count : 201
Count of stream of this kind : 1
Kind of stream : Video
Kind of stream : Video
Stream identifier : 0
ID : 1
ID : 1
Unique ID : 1121102779
Format : AVC
Format/Info : Advanced Video Codec
Format/Url : http://developers.videolan.org/x264.html
Commercial name : AVC
Format profile : High@L4.1
Format settings : CABAC / 4 Ref Frames
Format settings, CABAC : Yes
Format settings, CABAC : Yes
Format settings, ReFrames : 4
Format settings, ReFrames : 4 frames
Internet media type : video/H264
Codec ID : V_MPEG4/ISO/AVC
Codec ID/Url : http://ffdshow-tryout.sourceforge.net/
Codec : V_MPEG4/ISO/AVC
Codec : AVC
Codec/Family : AVC
Codec/Info : Advanced Video Codec
Codec/Url : http://ffdshow-tryout.sourceforge.net/
Codec profile : High@L4.1
Codec settings : CABAC / 4 Ref Frames
Codec settings, CABAC : Yes
Codec_Settings_RefFrames : 4
Duration : 3728478
Duration : 1h 2mn
Duration : 1h 2mn 8s 478ms
Duration : 1h 2mn
Duration : 01:02:08.478
Nominal bit rate : 333000
Nominal bit rate : 333 Kbps
Width : 712
Width : 712 pixels
Height : 478
Height : 478 pixels
Pixel aspect ratio : 1.000
Display aspect ratio : 1.490
Display aspect ratio : 3:2
Frame rate : 23.976
Frame rate : 23.976 fps
Frame count : 89394
Resolution : 8
Resolution : 8 bits
Colorimetry : 4:2:0
Color space : YUV
Chroma subsampling : 4:2:0
Bit depth : 8
Bit depth : 8 bits
Scan type : Progressive
Scan type : Progressive
Interlacement : PPF
Interlacement : Progressive
Bits/(Pixel*Frame) : 0.041
Delay : 0
Delay : 00:00:00.000
Delay, origin : Container
Delay, origin : Container
Writing library : x264 - core 68 r1183M f21daff
Writing library : x264 core 68 r1183M f21daff
Writing library/Name : x264
Writing library/Version : core 68 r1183M f21daff
Encoding settings : cabac=1 / ref=4 / deblock=1:1:1 / analyse=0x3:0x113 / me=umh / subme=7 / psy_rd=0.6:0.0 / mixed_ref=1 / me_range=16 / chroma_me=1 / trellis=1 / 8x8dct=1 / cqm=0 / deadzone=21,11 / chroma_qp_offset=-2 / threads=12 / nr=0 / decimate=1 / mbaff=0 / bframes=3 / b_pyramid=0 / b_adapt=2 / b_bias=0 / direct=3 / wpredb=0 / keyint=250 / keyint_min=25 / scenecut=40 / rc=2pass / bitrate=333 / ratetol=1.0 / qcomp=0.60 / qpmin=10 / qpmax=51 / qpstep=4 / cplxblur=20.0 / qblur=0.5 / vbv_maxrate=50000 / vbv_bufsize=50000 / ip_ratio=1.40 / pb_ratio=1.30 / aq=0

Audio
Count : 169
Count of stream of this kind : 1
Kind of stream : Audio
Kind of stream : Audio
Stream identifier : 0
ID : 2
ID : 2
Unique ID : 3656929446
Format : AAC
Format/Info : Advanced Audio Codec
Commercial name : AAC
Format profile : HE-AAC / LC
Format settings, SBR : Yes (Implicit)
Format settings, SBR : Yes (Implicit)
Format settings, PS : No (Explicit)
Format settings, PS : No (Explicit)
Codec ID : A_AAC
Codec : AAC LC-SBR
Codec : AAC LC-SBR
Codec/Family : AAC
Duration : 3728470
Duration : 1h 2mn
Duration : 1h 2mn 8s 470ms
Duration : 1h 2mn
Duration : 01:02:08.470
Channel(s) : 2
Channel(s) : 2 channels
Channel positions : Front: L R
Channel positions : 2/0/0
Sampling rate : 48000 / 24000
Sampling rate : 48.0 KHz / 24.0 KHz
Samples count : 178966560
Compression mode : Lossy
Compression mode : Lossy
Delay : 0
Delay : 00:00:00.000
Delay, origin : Container
Delay, origin : Container
Delay relative to video : 0
Video0 delay : 0

Menu
Count : 73
Count of stream of this kind : 1
Kind of stream : Menu
Kind of stream : Menu
Stream identifier : 0
Chapters_Pos_Begin : 72
Chapters_Pos_End : 73
00:00:00.097 : en:00:00:00.097




But this one only plays audio, it says video is not supported:

General
Count : 278
Count of stream of this kind : 1
Kind of stream : General
Kind of stream : General
Stream identifier : 0
Unique ID : 240646111899739145236830064790808349361
Unique ID : 240646111899739145236830064790808349361 (0xB50AC15ABD02AB24A898C0E12880CAB1)
Count of video streams : 1
Count of audio streams : 2
Count of text streams : 1
Count of menu streams : 1
Video_Format_List : AVC
Video_Format_WithHint_List : AVC
Codecs Video : AVC
Video_Language_List : Portuguese
Audio_Format_List : DTS / DTS
Audio_Format_WithHint_List : DTS / DTS
Audio codecs : DTS / DTS
Audio_Language_List : Portuguese / English
Text_Format_List : PGS
Text_Format_WithHint_List : PGS
Text codecs : S_HDMV/PGS
Text_Language_List : English
Complete name :
Folder name :
File name :
File extension : mkv
Format : Matroska
Format : Matroska
Format/Url : http://packs.matroska.org/
Format/Extensions usually used : mkv mk3d mka mks
Commercial name : Matroska
Format version : Version 2
Codec : Matroska
Codec : Matroska
Codec/Url : http://packs.matroska.org/
Codec/Extensions usually used : mkv mk3d mka mks
File size : 6776962566
File size : 6.31 GiB
File size : 6 GiB
File size : 6.3 GiB
File size : 6.31 GiB
File size : 6.312 GiB
Duration : 5688662
Duration : 1h 34mn
Duration : 1h 34mn 48s 662ms
Duration : 1h 34mn
Duration : 01:34:48.662
Overall bit rate : 9530483
Overall bit rate : 9 530 Kbps
Stream size : 134875321
Stream size : 129 MiB (2%)
Stream size : 129 MiB
Stream size : 129 MiB
Stream size : 129 MiB
Stream size : 128.6 MiB
Stream size : 129 MiB (2%)
Proportion of this stream : 0.01990
Title : DESPICABLE_ME_3D_G72.Title15.Bluray3DRip
Movie name : DESPICABLE_ME_3D_G72.Title15.Bluray3DRip
Encoded date : UTC 2011-06-12 07:16:58
File creation date : UTC 2011-09-30 22:03:06.811
File creation date (local) : 2011-09-30 19:03:06.811
File last modification date : UTC 2011-09-24 00:44:10.152
File last modification date (loc : 2011-09-23 21:44:10.152
Writing application : mkvmerge v4.8.0 ('I Got The...') built on May 24 2011 03:12:58
Writing library : libebml v1.2.0 + libmatroska v1.1.0
Writing library : libebml v1.2.0 + libmatroska v1.1.0

Video
Count : 204
Count of stream of this kind : 1
Kind of stream : Video
Kind of stream : Video
Stream identifier : 0
ID : 1
ID : 1
Unique ID : 1110888888
Format : AVC
Format/Info : Advanced Video Codec
Format/Url : http://developers.videolan.org/x264.html
Commercial name : AVC
Format profile : High@L5.1
Format settings : CABAC / 2 Ref Frames
Format settings, CABAC : Yes
Format settings, CABAC : Yes
Format settings, ReFrames : 2
Format settings, ReFrames : 2 frames
Internet media type : video/H264
Muxing mode : Header stripping
Codec ID : V_MPEG4/ISO/AVC
Codec ID/Url : http://ffdshow-tryout.sourceforge.net/
Codec : V_MPEG4/ISO/AVC
Codec : AVC
Codec/Family : AVC
Codec/Info : Advanced Video Codec
Codec/Url : http://ffdshow-tryout.sourceforge.net/
Codec profile : High@L5.1
Codec settings : CABAC / 2 Ref Frames
Codec settings, CABAC : Yes
Codec_Settings_RefFrames : 2
Duration : 5688647
Duration : 1h 34mn
Duration : 1h 34mn 48s 647ms
Duration : 1h 34mn
Duration : 01:34:48.647
Bit rate : 7076576
Bit rate : 7 077 Kbps
Width : 1920
Width : 1 920 pixels
Height : 1080
Height : 1 080 pixels
Pixel aspect ratio : 1.000
Display aspect ratio : 1.778
Display aspect ratio : 16:9
Frame rate : 23.976
Frame rate : 23.976 fps
Frame count : 136391
Resolution : 8
Resolution : 8 bits
Colorimetry : 4:2:0
Color space : YUV
Chroma subsampling : 4:2:0
Bit depth : 8
Bit depth : 8 bits
Scan type : Progressive
Scan type : Progressive
Interlacement : PPF
Interlacement : Progressive
Bits/(Pixel*Frame) : 0.142
Delay : 0
Delay : 00:00:00.000
Delay, origin : Container
Delay, origin : Container
Stream size : 5032018130
Stream size : 4.69 GiB (74%)
Stream size : 5 GiB
Stream size : 4.7 GiB
Stream size : 4.69 GiB
Stream size : 4.686 GiB
Stream size : 4.69 GiB (74%)
Proportion of this stream : 0.74252
Title : Portugues 3D
Writing library : x264 - core
Writing library : x264 core
Writing library/Name : x264
Writing library/Version : core
Language : pt
Language : Portuguese
Language : Portuguese
Language : pt
Language : por
Language : pt
Color primaries : BT.709-5, BT.1361, IEC 61966-2-4, SMPTE RP177
Transfer characteristics : BT.709-5, BT.1361
Matrix coefficients : BT.709-5, BT.1361, IEC 61966-2-4 709, SMPTE RP177

Audio #1
Count : 169
Count of stream of this kind : 2
Kind of stream : Audio
Kind of stream : Audio
Stream identifier : 0
Stream identifier : 1
ID : 2
ID : 2
Unique ID : 3993565881
Format : DTS
Format/Info : Digital Theater Systems
Commercial name : DTS
Muxing mode : Header stripping
Codec ID : A_DTS
Codec : DTS
Codec : DTS
Codec/Family : DTS
Duration : 5688662
Duration : 1h 34mn
Duration : 1h 34mn 48s 662ms
Duration : 1h 34mn
Duration : 01:34:48.662
Bit rate mode : CBR
Bit rate mode : Constant
Bit rate : 754500
Bit rate : 755 Kbps
Channel(s) : 6
Channel(s) : 6 channels
Channel positions : Front: L C R, Side: L R, LFE
Channel positions : 3/2/0.1
Sampling rate : 48000
Sampling rate : 48.0 KHz
Samples count : 273055776
Resolution : 24
Resolution : 24 bits
Bit depth : 24
Bit depth : 24 bits
Compression mode : Lossy
Compression mode : Lossy
Delay : 0
Delay : 00:00:00.000
Delay, origin : Container
Delay, origin : Container
Delay relative to video : 0
Video0 delay : 0
Stream size : 536511934
Stream size : 512 MiB (8%)
Stream size : 512 MiB
Stream size : 512 MiB
Stream size : 512 MiB
Stream size : 511.7 MiB
Stream size : 512 MiB (8%)
Proportion of this stream : 0.07917
Title : Portugues DTS
Language : pt
Language : Portuguese
Language : Portuguese
Language : pt
Language : por
Language : pt

Audio #2
Count : 169
Count of stream of this kind : 2
Kind of stream : Audio
Kind of stream : Audio
Stream identifier : 1
Stream identifier : 2
ID : 3
ID : 3
Unique ID : 593503628
Format : DTS
Format/Info : Digital Theater Systems
Commercial name : DTS
Muxing mode : Header stripping
Codec ID : A_DTS
Codec : DTS
Codec : DTS
Codec/Family : DTS
Duration : 5688662
Duration : 1h 34mn
Duration : 1h 34mn 48s 662ms
Duration : 1h 34mn
Duration : 01:34:48.662
Bit rate mode : CBR
Bit rate mode : Constant
Bit rate : 1509750
Bit rate : 1 510 Kbps
Channel(s) : 6
Channel(s) : 6 channels
Channel positions : Front: L C R, Side: L R, LFE
Channel positions : 3/2/0.1
Sampling rate : 48000
Sampling rate : 48.0 KHz
Samples count : 273055776
Resolution : 24
Resolution : 24 bits
Bit depth : 24
Bit depth : 24 bits
Compression mode : Lossy
Compression mode : Lossy
Delay : 0
Delay : 00:00:00.000
Delay, origin : Container
Delay, origin : Container
Delay relative to video : 0
Video0 delay : 0
Stream size : 1073557181
Stream size : 1 024 MiB (16%)
Stream size : 1 024 MiB
Stream size : 1 024 MiB
Stream size : 1 024 MiB
Stream size : 1 023.8 MiB
Stream size : 1 024 MiB (16%)
Proportion of this stream : 0.15841
Title : Ingles DTS
Language : en
Language : English
Language : English
Language : en
Language : eng
Language : en

Text
Count : 135
Count of stream of this kind : 1
Kind of stream : Text
Kind of stream : Text
Stream identifier : 0
ID : 4
ID : 4
Unique ID : 4257206425
Format : PGS
Commercial name : PGS
Muxing mode : zlib
Codec ID : S_HDMV/PGS
Codec ID/Info : The same subtitle format used on BDs/HD-DVDs
Codec : S_HDMV/PGS
Codec : S_HDMV/PGS
Title : Portugues

Menu
Count : 93
Count of stream of this kind : 1
Kind of stream : Menu
Kind of stream : Menu
Stream identifier : 0
Chapters_Pos_Begin : 72
Chapters_Pos_End : 93
00:00:00.000 : en:(01)00:00:00:000
00:03:22.410 : en:(02)00:03:22:410
00:06:31.891 : en:(03)00:06:31:891
00:12:05.099 : en:(04)00:12:05:099
00:13:50.496 : en:(05)00:13:50:496
00:18:38.826 : en:(06)00:18:38:826
00:23:06.843 : en:(07)00:23:06:843
00:25:56.221 : en:(08)00:25:56:221
00:30:40.839 : en:(09)00:30:40:839
00:34:48.753 : en:(10)00:34:48:753
00:39:43.047 : en:(11)00:39:43:047
00:43:38.365 : en:(12)00:43:38:365
00:48:19.187 : en:(13)00:48:19:187
00:52:52.502 : en:(14)00:52:52:502
00:56:46.111 : en:(15)00:56:46:111
01:02:08.015 : en:(16)01:02:08:015
01:09:23.868 : en:(17)01:09:23:868
01:16:25.455 : en:(18)01:16:25:455
01:22:41.581 : en:(19)01:22:41:581
01:27:35.375 : en:(20)01:27:35:375
01:34:41.384 : en:(21)01:34:41:384



The 1st that plays video is a mkv normal file.
The 2nd that does not play video (only play audio) is a 3D SBS file with 2 subtitles and audio.

They use same container and same video codecs.
Any of you can see the difference between them?

Thanks in advance.
reply

Feedback

Post Your Answer

Topic
Your reply
Your name
or log in
Verify you're human

By submitting this form you agree to our posting rules,
privacy policy and our disclaimer.